Skip to main content

Yarn Live at Camp Kee-Wamee on 2013-09-15

Audio Preview

etree
Yarn Live at Camp Kee-Wamee on 2013-09-15

by Yarn

Topics Wormfest 2013


*** This is a 24 bit recording, not intended for CD Burning ***

Yarn
2013-09-15
Wormtown Music Festival
Camp KeeWanee
Greenfield, MA
Main Stage

DPA 4011 > V3 Digital + SBD > DR680 (24/48)
SDHC Card > Sound Forge Pro 10.0 (Mix, Normalize, Fades) > CD Wav (tracking) > TLH > Flac (level 8)
TS at front corner of FOH (ROC)/ORTF/approx. 8' high

Taped and Transferred by Brian V.

01. So Tired
02. Bobby Weeks
03. The Loner
04. I Hate You
05. Down on Your Luck
06. Take the Win
07. Out on the Road
08. All Over Now
09. Brokedown Palace
10. Music's Only Outlaw


Collection YarnMusic
Band/Artist Yarn
Venue Camp Kee-Wamee
Location Greenfield, MA

Source DPA 4011 > V3 Digital + SBD > DR680 (24/48)
Lineage SDHC Card > Sound Forge Pro 10.0 (Mix, Normalize, Fades) > CD Wav (tracking) > TLH > Flac (level 8)
Taped by Brian V.
Transferred by Brian V.

Notes

Thanks to everyone that put Wormtown Music Festival together and for the tapers spot.
***Support Bands That Allow Taping/Trading***

shntool output
length expanded size cdr WAVE problems fmt ratio filename
4:40.853 80885804 B cxx -- ---xx flac 0.6726 yarn2013-09-15s1t01.flac
4:58.213 85885484 B cxx -- ---xx flac 0.6338 yarn2013-09-15s1t02.flac
8:16.733 143059244 B cxx -- ---xx flac 0.6569 yarn2013-09-15s1t03.flac
4:25.907 76581164 B cxx -- ---xx flac 0.6853 yarn2013-09-15s1t04.flac
4:27.267 76972844 B cxx -- ---xx flac 0.6520 yarn2013-09-15s1t05.flac
6:30.573 112485164 B cxx -- ---xx flac 0.6258 yarn2013-09-15s1t06.flac
7:30.227 129665324 B cxx -- ---xx flac 0.6606 yarn2013-09-15s1t07.flac
4:32.347 78435884 B cxx -- ---xx flac 0.6420 yarn2013-09-15s1t08.flac
4:52.133 84134444 B cxx -- ---xx flac 0.5989 yarn2013-09-15s1t09.flac
9:52.339 170593580 B cxx -- ---xx flac 0.6538 yarn2013-09-15s1t10.flac
60:06.592 1038698936 B 0.6487 (10 files)

comment
Reviews

There are no reviews yet. Be the first one to write a review.
SIMILAR ITEMS (based on metadata)
Yarn
by Yarn
etree
eye 84
favorite 0
comment 0
Source: DPA 4011 > V3 Digital + SBD > DR680 (24/48)
Yarn
etree
eye 209
favorite 1
comment 1
favoritefavoritefavoritefavoritefavorite ( 1 reviews )
Source: AKG 392> mini-me + SB > R-44
Yarn
etree
eye 83
favorite 0
comment 0
Source: OTC/@FOB/ROC; mics@~11ft > Source 1: AKGc460b/ck1 > V3 >Tascam DR680; Source 2: MBHO603/ka200n > Busman mod Tascam DR680
Yarn
etree
eye 50
favorite 0
comment 0
Source: source1: akg 482 (3' split) > Lunatec V2 > Edirol R-44 > WAV (24/48k), source2: sbd > Edirol R-44 > WAV (24/48k)
Shakedown
by Shakedown
etree
eye 105
favorite 0
comment 0
Source: BSC1 (hypers) > FR-2LE [BA TMod] (24/48)
Shakedown
by Shakedown
etree
eye 150
favorite 1
comment 0
Source: BSC1 (hypers) > FR-2LE [BA TMod] (24/48)
Yarn
etree
eye 167
favorite 0
comment 0
Source: AKG 393 > Apogee mini-me > + SB > R-44
Yarn
etree
eye 81
favorite 0
comment 1
favoritefavoritefavoritefavorite ( 1 reviews )
Source: AKG c214 + SBD > DR70D (2448)
Yarn
etree
eye 58
favorite 1
comment 0
Source: akg460-ck1>V2 + SBD + Microtech Gefell m21>nbob actives>V3>DR680@2444
Jabooda
by Jabooda
etree
eye 49
favorite 0
comment 0
Source: AKG c214 > R44 (24/48)